Jean-Claude Van Johnson (2017) Season 1 S01 (1080p WEBRip x265 HE...

  • Category TV
  • Type HEVC/x265
  • Language English
  • Total size 1.8 GB
  • Uploaded By UTRCorp
  • Downloads 144
  • Last checked 1 day ago
  • Date uploaded 5 days ago
  • Seeders 6
  • Leechers 5

Infohash : 2F19BBCADBBD9B39A3B54B29A1EBF1E9440F74BD








Media Information

Media Information

Code:

General
Format : Matroska
Format version : Version 4 / Version 2
File size : 307 MiB
Duration : 30 min 9 s
Overall bit rate : 1 422 kb/s
Encoded date : UTC 2018-01-08 04:25:21
Writing application : mkvmerge v16.0.0 ('Protest') 64-bit
Writing library : libebml v1.3.5 + libmatroska v1.4.8
Writing frontend : StaxRip v1.7.0.3

Video
ID : 1
Format : HEVC
Format/Info : High Efficiency Video Coding
Format profile : Main [email protected]@Main
Codec ID : V_MPEGH/ISO/HEVC
Duration : 30 min 9 s
Bit rate : 1 201 kb/s
Width : 1 920 pixels
Height : 800 pixels
Display aspect ratio : 2.40:1
Frame rate mode : Constant
Frame rate : 23.976 (24000/1001) FPS
Color space : YUV
Chroma subsampling : 4:2:0
Bit depth : 10 bits
Bits/(Pixel*Frame) : 0.033
Stream size : 259 MiB (84%)
Writing library : x265 2.5+31-df2de6ea407d:[Windows][MSVC 1911][64 bit] 10bit
Encoding settings : cpuid=1173503 / frame-threads=3 / numa-pools=8 / wpp / no-pmode / no-pme / no-psnr / ssim / log-level=2 / input-csp=1 / input-res=1920x800 / interlace=0 / total-frames=43387 / level-idc=0 / high-tier=1 / uhd-bd=0 / ref=4 / no-allow-non-conformance / no-repeat-headers / annexb / no-aud / no-hrd / info / hash=0 / no-temporal-layers / open-gop / min-keyint=23 / keyint=250 / bframes=4 / b-adapt=2 / b-pyramid / bframe-bias=0 / rc-lookahead=25 / lookahead-slices=4 / scenecut=40 / no-intra-refresh / ctu=64 / min-cu-size=8 / rect / no-amp / max-tu-size=32 / tu-inter-depth=1 / tu-intra-depth=1 / limit-tu=0 / rdoq-level=2 / dynamic-rd=0.00 / ssim-rd / signhide / no-tskip / nr-intra=0 / nr-inter=0 / no-constrained-intra / strong-intra-smoothing / max-merge=3 / limit-refs=3 / limit-modes / me=3 / subme=3 / merange=57 / temporal-mvp / weightp / no-weightb / no-analyze-src-pics / deblock=0:0 / sao / no-sao-non-deblock / rd=4 / no-early-skip / rskip / no-fast-intra / no-tskip-fast / no-cu-lossless / no-b-intra / no-splitrd-skip / rdpenalty=0 / psy-rd=0.00 / psy-rdoq=1.00 / no-rd-refine / analysis-reuse-mode=0 / no-lossless / cbqpoffs=0 / crqpoffs=0 / rc=abr / bitrate=1200 / qcomp=0.60 / qpstep=4 / stats-write=0 / stats-read=2 / cplxblur=20.0 / qblur=0.5 / ipratio=1.40 / pbratio=1.30 / aq-mode=2 / aq-strength=1.00 / cutree / zone-count=0 / no-strict-cbr / qg-size=32 / no-rc-grain / qpmax=69 / qpmin=0 / no-const-vbv / sar=0 / overscan=0 / videoformat=5 / range=0 / colorprim=2 / transfer=2 / colormatrix=2 / chromaloc=0 / display-window=0 / max-cll=0,0 / min-luma=0 / max-luma=1023 / log2-max-poc-lsb=8 / vui-timing-info / vui-hrd-info / slices=1 / opt-qp-pps / opt-ref-list-length-pps / no-multi-pass-opt-rps / scenecut-bias=0.05 / no-opt-cu-delta-qp / no-aq-motion / no-hdr / no-hdr-opt / no-dhdr10-opt / analysis-reuse-level=5 / scale-factor=0 / refine-intra=0 / refine-inter=0 / refine-mv=0 / limit-sao / ctu-info=0
Default : Yes
Forced : No

Audio
ID : 2
Format : AAC
Format/Info : Advanced Audio Codec
Format profile : HE-AAC / LC
Codec ID : A_AAC
Duration : 30 min 9 s
Bit rate : 219 kb/s
Channel(s) : 6 channels
Channel positions : Front: L C R, Side: L R, LFE
Sampling rate : 48.0 kHz / 24.0 kHz
Frame rate : 23.438 FPS (1024 spf)
Compression mode : Lossy
Delay relative to video : 31 ms
Stream size : 47.3 MiB (15%)
Language : English
Default : Yes
Forced : No

Subtitle
ID : 3
Format : UTF-8
Codec ID : S_TEXT/UTF8
Codec ID/Info : UTF-8 Plain Text
Duration : 29 min 55 s
Bit rate : 59 b/s
Count of elements : 502
Stream size : 13.0 KiB (0%)
Language : English
Default : No
Forced : No

Menu
00:00:00.000 : en:Amazon Original
00:00:05.000 : en:Jean-Claude Van Damme introduces himself, Title Sequence
00:01:18.000 : en:Jean-Claude Van Damme begins his day
00:03:09.000 : en:JC runs into Vanessa
00:06:20.000 : en:Jane is ecstatic to have Jean-Claude back
00:09:27.000 : en:JC trains for his mission
00:10:03.000 : en:JC arrives in Bulgaria
00:12:43.000 : en:JC struggles with the fight scenes
00:18:11.000 : en:JC breaks into the warehouse
00:23:55.000 : en:JC goes back for his script
00:27:18.000 : en:Jean-Claude rushes back to meet Vanessa
00:29:07.000 : en:End Credits



Source Information

Code:

Release:
Jean-Claude.Van.Johnson.S01E01.Pilot.1080p.AMZN.WEBRip.DDP5.1.x264-NTb.mkv (1.09 GBs)


Files:

Jean-Claude Van Johnson Season 1 (1080p x265 10bit Joy)
  • Encoded by JoyBell (UTR).txt (2.6 KB)
  • folder.jpg (816.6 KB)
  • How to play HEVC (THIS FILE).txt (3.0 KB)
  • Jean-Claude Van Johnson S01E01 Pilot (1080p x265 10bit S97 Joy).mkv (306.8 MB)
  • Jean-Claude Van Johnson S01E02 What Year Do You Think This Is (1080p x265 10bit S96 Joy).mkv (304.3 MB)
  • Jean-Claude Van Johnson S01E03 (1080p x265 10bit S93 Joy).mkv (276.0 MB)
  • Jean-Claude Van Johnson S01E04 If Youre Lucky (1080p x265 10bit S97 Joy).mkv (332.2 MB)
  • Jean-Claude Van Johnson S01E05 Run to Nowhere (1080p x265 10bit S98 Joy).mkv (300.8 MB)
  • Jean-Claude Van Johnson S01E06 The World Needs Its Hero (1080p x265 10bit S97 Joy).mkv (342.3 MB)
  • Ninite K-Lite Codecs Unattended Silent Installer and Updater.website (0.5 KB)

There are currently no comments. Feel free to leave one :)

Code:

  • udp://tracker.opentrackr.org:1337/announce
  • udp://p4p.arenabg.ch:1337/announce
  • udp://tracker.piratepublic.com:1337/announce
  • udp://tracker.leechers-paradise.org:6969/announce
  • udp://tracker.coppersurfer.tk:6969/announce
  • udp://tracker.zer0day.to:1337/announce
  • udp://p4p.arenabg.com:1337/announce
  • udp://p4p.arenabg.ch:1337/announce
  • udp://tracker.internetwarriors.net:1337/announce
  • udp://eddie4.nl:6969/announce
  • http://retracker.krs-ix.ru/announce
  • udp://tracker.torrent.eu.org:451/announce
  • udp://tracker.opentrackr.org:1337/announce
  • http://tracker.trackerfix.com:80/announce
  • udp://9.rarbg.me:2710/announce
  • udp://9.rarbg.to:2710/announce